91聽歌網,品味HIFI  享受音樂

您所在的位置:首頁 > 說音樂 > 正文

分軌無損音樂刻錄成光碟的方法

1、分軌無損音樂是指dts、ape、wav格式單曲文件。

2、按照cue規范來制作一個cue。

新建一個文本文檔,打開后寫入一下內容:(注意:后面的“ <------”為注釋,不要寫到cue里)

PERFORMER "藝術家" <------可以不寫這行

TITLE "專輯名" <------可以不寫這行

FILE "第一個.dts" BINARY <------文件名記得改為你下載的DTS文件名

TRACK 01 AUDIO <------記得修改第n首標號,第一首就是01

INDEX 01 00:00:00 <------完全照抄

FILE "第二個.dts" BINARY <------文件名改下

TRACK 02 AUDIO <------記得修改第n首標號,第二首是02,下同

INDEX 01 00:00:00 <------完全照抄

FILE "第三個.dts" BINARY <------文件名改下

TRACK 03 AUDIO <------記得修改第n首標號

INDEX 01 00:00:00 <------完全照抄

3、曲目多就繼續往寫,格式雷同,寫好后保存,記得跟DTS歌曲保存在一個目錄下,將.TXT后綴改為.CUE后綴。

4、接著用Daemon Tools加載修改后的cue,然后重復上面介紹的,用NERO的“復制光盤”搞定。

本文網址:http://www.gshdce.tw/html/shuoyinyue/640.html
更多>>網友評論
發表評論
還可以輸入255個字符 插入表情
世界杯法甲球队